#TITLE:Diva;
#SUBTITLE:;
#ARTIST:After School;
#TITLETRANSLIT:Diva;
#SUBTITLETRANSLIT:;
#ARTISTTRANSLIT:After School;
#CREDIT:Thu Bay , 18-4-2009;
#BANNER:Diva-bn.png.jpg;
#BACKGROUND:Diva-bg.png;
#LYRICSPATH:;
#CDTITLE:pm4cd.png;
#MUSIC:Diva.mp3;
#OFFSET:0.120;
#SAMPLESTART:62.480;
#SAMPLELENGTH:20.000;
#SELECTABLE:YES;
#BPMS:0.000=130.000;
#STOPS:;
#BGCHANGES:;
// cache tags:
#FIRSTBEAT:8.000;
#LASTBEAT:428.000;
#SONGFILENAME:Songs/Music V.I.P ^_^/Diva/Diva.sm;
#HASMUSIC:1;
#HASBANNER:1;
#MUSICLENGTH:197.926;
// end cache tags

//---------------dance-single - ----------------
#NOTES:
     dance-single:
     :
     Hard:
     17:
     1.000,1.000,1.000,0.222,1.000,1154.000,336.000,44.000,0.000,194.000:
0000
0000
0000
0000
,
0000
0000
0000
0000
,
1210
0001
0010
0001
0010
1000
0010
0001
,
0320
0001
0100
1000
0100
1000
0100
1101
,
1132
0010
1000
0100
1000
0100
0010
0100
,
2003
0100
0001
0010
0100
0010
0100
0010
,
3211
0010
0001
0010
2300
0010
0001
0010
,
0101
0001
0001
0001
0001
0001
0001
0001
0001
0001
0001
0001
0001
0001
0111
0001
,
3211
0001
0001
0001
0001
0001
0001
0001
0001
0001
0001
0001
0001
0001
0001
0001
,
0321
0001
0001
0001
0001
0001
1001
0001
0101
0001
1001
0001
0101
0001
1001
0001
,
1131
0010
1100
0100
0101
0010
1001
0001
,
0110
1000
0001
0010
1100
0000
0100
0000
0101
0000
0010
0000
1001
0000
1000
0000
,
0011
0100
0110
1000
1100
0001
0110
0010
,
1110
0000
0010
0000
1101
0000
0010
0000
0111
1000
0001
0100
1011
0000
0100
0000
,
1111
0001
0110
0010
1100
0100
0101
0010
,
1001
0010
0001
0100
1010
0000
0010
0000
1100
0000
0100
0000
0101
0000
0010
0000
,
0011
0100
1000
0001
0110
0000
0001
0000
1010
0000
0010
0000
1001
0000
0100
0000
,
0111
0000
0100
0000
1110
0000
0001
0000
1011
0100
1000
0010
1101
0000
0001
0000
,
1112
0010
0110
0010
,
1203
0001
1010
0001
,
2301
0010
0101
0100
,
3021
1000
0101
0100
,
1230
0001
1010
1000
,
0312
0100
0110
1000
,
2103
0001
0110
0010
,
3211
1011
1011
1011
,
1311
0100
0001
0010
1000
0001
0100
0010
1000
0100
0010
0100
0011
0000
0100
0000
,
1011
0100
0001
1000
0010
0100
1000
0100
1000
0010
0100
0010
1001
0000
0100
0000
,
1101
0010
0001
0100
1000
0010
0001
0010
0100
1000
0100
0010
1100
0000
0001
0000
,
1110
1000
0111
0001
1101
0100
1011
0001
,
1111
1000
0101
0010
1100
0010
0101
0010
,
1101
1000
1000
1000
1010
1000
1000
1000
1001
1000
1000
1000
1100
1000
1000
1000
,
1011
1000
1000
1000
1010
1000
1000
1000
1001
1000
1000
1000
1100
1000
1000
1000
,
1110
1000
1000
1000
1011
1000
1000
1000
1101
1000
1000
1000
1011
1000
1000
1000
,
1110
0001
0101
0010
1100
0100
0101
0010
,
1101
0010
1000
0001
0110
0000
1000
0000
1100
0000
0100
0000
0101
0000
0010
0000
,
1101
0001
1100
0100
0101
0010
1001
0100
,
1011
0000
1000
0000
1110
0000
0100
0000
0111
1000
0010
0100
1011
0000
0100
0000
,
1111
1000
0110
0100
0101
0010
1001
0001
,
1101
0010
0100
1000
0101
0000
0010
0000
1001
0000
0100
0000
0011
0000
1000
0000
,
0111
1000
0001
0100
0011
0000
0100
0000
0101
0000
0010
0000
1010
0000
0100
0000
,
0111
0000
1000
0000
1011
0000
0100
0000
1101
0010
0001
0100
0011
0000
0001
0000
,
1201
0001
0001
0001
,
0312
0010
0010
0010
,
1023
1000
1000
1000
,
2130
0100
0100
0100
,
3210
0011
0010
0011
,
0321
1001
0001
1001
,
1032
0100
0010
0100
1010
0000
0000
0000
0010
0100
1000
0100
1010
0000
0000
0000
,
1003
0100
0010
0100
0001
0010
1000
0010
0100
0001
1000
0100
0010
0100
0001
0010
,
0101
0000
1100
0110
0011
0000
0101
0110
,
1010
0100
0001
1000
0011
0000
0100
0000
0101
0000
0010
0000
1010
0000
0100
0000
,
1001
0110
1100
0101
1001
1010
0110
0101
,
0011
1100
0011
0101
1010
0000
0110
1001
,
0110
0000
0101
0101
1010
0000
1100
0110
,
1010
0010
0010
0010
0110
0010
0010
0010
0011
0010
0010
0010
1010
0010
0010
0010
,
0110
0010
0010
0010
0011
0010
0010
0010
1010
0010
0010
0010
0110
0010
0010
0010
,
0111
0010
0010
0010
1011
0010
0010
0010
1110
0010
0010
0010
0111
0010
0010
0010
,
1011
0100
0001
1000
0010
0100
1000
0100
0010
1000
0001
0100
0010
0001
0010
0100
,
1011
0100
1000
0010
0001
1000
0100
0001
1000
0001
0100
0001
0010
0100
0001
1000
,
1101
0010
1000
0001
0100
0010
1000
0100
0010
0001
0010
0100
1000
0100
0010
0001
,
1101
0010
0100
1000
0111
1000
0010
0100
1011
0100
1000
0001
1110
0000
0001
0000
,
1101
0010
0101
0100
0011
1000
0110
1000
,
1110
0100
0100
0100
0101
0100
0100
0100
1100
0100
0100
0100
0110
0100
0100
0100
,
1101
0100
0100
0100
0101
0100
0100
0100
1100
0100
0100
0100
0110
0100
0100
0100
,
1110
0100
0100
0100
0111
0100
0100
0100
1101
0100
0100
0100
1110
0100
0100
0100
,
0112
1000
0110
0100
1010
0010
1100
0100
,
2113
0001
0011
0100
0110
0010
0101
0100
,
3021
1000
0101
0100
1001
0001
1100
0001
,
1231
0010
1011
1000
1011
0010
1011
0001
,
2311
0100
0101
0010
0110
0001
0011
0100
,
3121
0001
0001
0001
1001
0001
0001
0001
0101
0001
0001
0001
1001
0001
0001
0001
,
1231
0001
0001
0001
0011
0001
0001
0001
1001
0001
0001
0001
0011
0001
0001
0001
,
2311
0001
0001
0001
0101
0001
0001
0001
0011
0001
0001
0001
0101
0001
0001
0001
,
3112
0000
0000
0000
,
0023
0000
0000
0000
0000
0000
0000
1101
,
1231
0000
0000
0000
,
2300
0000
0000
0000
,
3121
0000
0000
0000
,
1032
1000
1000
1000
1000
1000
1000
1000
1000
1000
1000
1000
1000
1000
1110
1000
,
1123
1000
1000
1000
1000
1000
1000
1000
1000
1000
1000
1000
1000
1000
1000
1000
,
1230
1000
1000
1000
1000
1000
1000
1000
1000
1000
1000
1000
1000
1000
1000
1000
,
1311
0100
0001
0010
0101
1000
0100
1000
0110
1000
0001
0100
0011
1000
0100
0010
,
1101
0010
0100
1000
0101
0010
0100
0001
1100
0010
0100
1000
0110
1000
0010
0001
,
1011
0100
1000
0100
1010
0100
0001
1000
0011
0100
0010
0001
1100
0010
0100
1000
,
0111
1000
0100
0010
1101
0010
0100
1000
0111
1000
0100
0010
1101
0010
0100
1000
,
1011
0100
1000
0010
0101
0010
0100
1000
0110
0001
1000
0100
1010
0100
0010
0001
,
1101
0100
0100
0100
0110
0100
0100
0100
1100
0100
0100
0100
0101
0100
0100
0100
,
0111
0100
0100
0100
0110
0100
0100
0100
1100
0100
0100
0100
0101
0100
0100
0100
,
1101
0100
0100
0100
1110
0100
0100
0100
0111
0100
0100
0100
1101
0100
0100
0100
,
0112
1000
0100
1000
0110
1000
0010
0100
1010
0100
1000
0010
1100
0010
1000
0100
,
1123
0001
1000
0100
1001
0100
1000
0001
1100
0001
0100
1000
0101
1000
0100
0001
,
1231
0010
1000
0010
1001
0010
0001
1000
0011
1000
0010
0001
1010
0001
0010
1000
,
2311
0100
0001
0010
0101
0010
0100
0001
0110
0001
0010
0100
0011
0100
0010
0100
,
3111
1000
0100
0010
0110
1000
0100
0010
0101
0010
0001
0100
1010
0001
0010
0100
,
1011
0010
0010
0010
0110
0010
0010
0010
1010
0010
0010
0010
0011
0010
0010
0010
,
1110
0010
0010
0010
0110
0010
0010
0010
1010
0010
0010
0010
0011
0010
0010
0010
,
0111
0010
0010
0010
1011
0010
0010
0010
0111
0010
0010
0010
1110
0010
0010
0010
,
1011
0100
0010
0001
1010
0100
0010
0001
1010
0100
0010
0001
1010
0100
0010
0001
,
1101
0010
0100
1000
1101
0010
0100
1000
1101
0010
0100
1000
1101
0010
0100
1000
,
1010
0100
0010
0001
1010
0100
0010
0001
1010
0100
0010
0001
1010
0100
0010
0001
,
1101
0010
0100
1000
1101
0010
0100
1000
1101
0010
0100
1000
1101
0010
0100
1000
,
1011
0100
0010
0001
1010
0100
0010
0001
1010
0100
0010
0001
1010
0100
0010
0001
,
0111
0010
0100
1000
0111
0010
0100
1000
0111
0010
0100
1000
0111
0010
0100
1000
,
1010
0100
0010
0001
1010
0100
0010
0001
1010
0100
0010
0001
1010
0100
0010
0001
,
0111
0010
0100
1000
0111
0010
0100
1000
0111
0010
0100
1000
0111
0010
0100
1000
,
2000
0000
0000
0000
,
3000
0000
0000
0000
;
